홈 > 영화 > 영화
영화
 [구글검색] 구글에서 더토렌트 검색 - 구글에서 토렌트를 검색하실 때에 검색어 뒤에 더토렌트를 꼭 붙여서 검색하세요.     더토렌트에서 광고중인 웹에 문제가 있다면 상단에 나와 있는 운영자 이메일로 연락 주십시오.     다운로드가 완료될 때까지 저희가 함께하겠습니다. 편안한 시간 되십시오.

토렌트서치 스피드자료실

   

   

The.Last.Samurai.2003.BRRip.XviD.B4ND1T69

댓글 : 0 조회 : 4 자료 없을때 내 사이트를 가장 위로
The.Last.Samurai.2003.BRRip.XviD.B4ND1T69
MV5BMzkyNzQ1Mzc0NV5BMl5BanBnXkFtZTcwODg3MzUzMw@@._V1_UX182_CR0,0,182,268_AL_.jpg

Director: Edward Zwick
Writers: John Logan (story), John Logan (screenplay)
Stars: Tom Cruise, Ken Watanabe, Billy Connolly

Plot/Story:
An American military advisor embraces the Samurai culture he was hired to destroy after he is captured in battle.

General
Complete name : The.Last.Samurai.2003.BRRip.XviD.B4ND1T69.avi
Format : AVI
Format/Info : Audio Video Interleave
File size : 1.83 GiB
Duration : 2 h 34 min
Overall bit rate : 1 701 kb/s
Subtitles : Yes...Hardcoded for non-English parts + file included(HI)

Video
ID : 0
Format : MPEG-4 Visual
Format profile : Advanced [email protected]
Format settings, BVOP : 2
Format settings, QPel : No
Format settings, GMC : No warppoints
Format settings, Matrix : Default (H.263)
Codec ID : XVID
Codec ID/Hint : XviD
Duration : 2 h 34 min
Bit rate : 1 559 kb/s
Width : 720 pixels
Height : 304 pixels
Display aspect ratio : 2.35:1
Frame rate : 24.390 FPS
Color space : YUV
Chroma subsampling : 4:2:0
Bit depth : 8 bits
Scan type : Progressive
Compression mode : Lossy
Bits/(Pixel*Frame) : 0.292
Stream size : 1.68 GiB (92%)
Writing library : XviD 64

Audio
ID : 1
Format : MPEG Audio
Format version : Version 1
Format profile : Layer 3
Codec ID : 55
Codec ID/Hint : MP3
Duration : 2 h 34 min
Bit rate mode : Constant
Bit rate : 128 kb/s
Channel(s) : 2 channels
Sampling rate : 48.0 kHz
Compression mode : Lossy
Stream size : 141 MiB (8%)
Alignment : Aligned on interleaves
Interleave, duration : 24 ms (0.59 video frame)

Screenshots:

Samurai-1.png
Samurai-2.png
Samurai-3.png
Samurai-4.png
Samurai-6.png
Samurai-7.png
Samurai-8.png
Samurai-9.png

The.Last.Samurai.2003.BRRip.XviD.B4ND1T69

MV5BMzkyNzQ1Mzc0NV5BMl5BanBnXkFtZTcwODg3MzUzMw@@._V1_UX182_CR0,0,182,268_AL_.jpg

Director: Edward Zwick
Writers: John Logan (story), John Logan (screenplay)
Stars: Tom Cruise, Ken Watanabe, Billy Connolly

Plot/Story:
An American military advisor embraces the Samurai culture he was hired to destroy after he is captured in battle.

General
Complete name : The.Last.Samurai.2003.BRRip.XviD.B4ND1T69.avi
Format : AVI
Format/Info : Audio Video Interleave
File size : 1.83 GiB
Duration : 2 h 34 min
Overall bit rate : 1 701 kb/s
Subtitles : Yes...Hardcoded for non-English parts + file included(HI)

Video
ID : 0
Format : MPEG-4 Visual
Format profile : Advanced [email protected]
Format settings, BVOP : 2
Format settings, QPel : No
Format settings, GMC : No warppoints
Format settings, Matrix : Default (H.263)
Codec ID : XVID
Codec ID/Hint : XviD
Duration : 2 h 34 min
Bit rate : 1 559 kb/s
Width : 720 pixels
Height : 304 pixels
Display aspect ratio : 2.35:1
Frame rate : 24.390 FPS
Color space : YUV
Chroma subsampling : 4:2:0
Bit depth : 8 bits
Scan type : Progressive
Compression mode : Lossy
Bits/(Pixel*Frame) : 0.292
Stream size : 1.68 GiB (92%)
Writing library : XviD 64

Audio
ID : 1
Format : MPEG Audio
Format version : Version 1
Format profile : Layer 3
Codec ID : 55
Codec ID/Hint : MP3
Duration : 2 h 34 min
Bit rate mode : Constant
Bit rate : 128 kb/s
Channel(s) : 2 channels
Sampling rate : 48.0 kHz
Compression mode : Lossy
Stream size : 141 MiB (8%)
Alignment : Aligned on interleaves
Interleave, duration : 24 ms (0.59 video frame)

Screenshots:

Samurai-1.png
Samurai-2.png
Samurai-3.png
Samurai-4.png
Samurai-6.png
Samurai-7.png
Samurai-8.png
Samurai-9.png

Please Seed For As Long As Possible
Or At Least 1:1 Ratio...Thanks
Enjoy Peeps

The.Last.Samurai.2003.BRRip.XviD.B4ND1T69

번역하기: 한국 한국어


<< 이 게시판에서 관련된 자료 목록 >>
 [구글검색] 구글에서 더토렌트 검색 - 구글에서 토렌트를 검색하실 때에 검색어 뒤에 더토렌트를 꼭 붙여서 검색하세요.     더토렌트에서 광고중인 웹에 문제가 있다면 상단에 나와 있는 운영자 이메일로 연락 주십시오.     다운로드가 완료될 때까지 저희가 함께하겠습니다. 편안한 시간 되십시오.

토렌트서치 보안자료실

   

   

현재 인기있는 자료


영화 인기글


오늘의 인기글


새댓글


Facebook Twitter GooglePlus KakaoStory NaverBand